Jump to page content

Cue sheet for twoTribE – Live, December 2006

Original cue sheet file See tracklist Tracklist and cue sheet archive

PERFORMER "twoTribE"
TITLE "Live, December 2006"
FILE "twoTribE - Live, December 2006.mp3" MP3

TRACK 01 AUDIO
   INDEX 01 00:00:00
   PERFORMER "Jan Hammer Project ft. TQ"
   TITLE "Crockett's Theme [House mix]"

TRACK 02 AUDIO
   INDEX 01 06:12:00
   PERFORMER "Jaytech"
   TITLE "Monkey Music"

TRACK 03 AUDIO
   INDEX 01 11:57:00
   PERFORMER "Madonna"
   TITLE "Like A Prayer [Mysterious remix]"

TRACK 04 AUDIO
   INDEX 01 21:05:00
   PERFORMER "Silent Brothers"
   TITLE "Alba"

TRACK 05 AUDIO
   INDEX 01 25:37:00
   PERFORMER "Episodic"
   TITLE "Nothing This Day [Eelke Kleijn remix]"

TRACK 06 AUDIO
   INDEX 01 32:25:00
   PERFORMER "Sébastien Léger ft. Gia Melish"
   TITLE "Hypnotized [Chris Lake vocal mix]"

TRACK 07 AUDIO
   INDEX 01 38:11:00
   PERFORMER "Pete Lazonby"
   TITLE "Sacred Cycles [Derek Howell remix]"

TRACK 08 AUDIO
   INDEX 01 45:41:00
   PERFORMER "Locktown & Alexandra Prince"
   TITLE "Alive [Henrik B dub mix]"

TRACK 09 AUDIO
   INDEX 01 51:19:00
   PERFORMER "Tilt"
   TITLE "I Dream [Lars Nyhus remix]"