Jump to page content

Cue sheet for jx3p – 039. Entropy of Creation Mix

Original cue sheet file See tracklist Tracklist and cue sheet archive

FILE "jx3p - 039. Entropy of Creation Mix.mp3" MP3
PERFORMER "jx3p"
TITLE "Entropy of Creation Mix"

REM Cue sheet by Daniel Beardsmore, Telcontar.net
REM http://telcontar.net/store/archive/tracklists/

TRACK 01 AUDIO
   INDEX 01 00:00:00
   PERFORMER "Nemos"
   TITLE "Acquiescence Future"

TRACK 02 AUDIO
   INDEX 01 06:19:50
   PERFORMER "Nemos"
   TITLE "Entropy of Creation"

TRACK 03 AUDIO
   INDEX 01 10:29:00
   PERFORMER "PFM"
   TITLE "Summerboy"

TRACK 04 AUDIO
   INDEX 01 16:00:00
   PERFORMER "K.C.Dee"
   TITLE "Untitled"

TRACK 05 AUDIO
   INDEX 01 21:22:50
   PERFORMER "Nemos"
   TITLE "Space Girl [Intersperse remix]"

TRACK 06 AUDIO
   INDEX 01 26:43:20
   PERFORMER "Intense"
   TITLE "The Sax Lick"

TRACK 07 AUDIO
   INDEX 01 28:48:20
   PERFORMER "Steve Alliance"
   TITLE "Lights Out"

TRACK 08 AUDIO
   INDEX 01 33:05:00
   PERFORMER "Survival"
   TITLE "Alpine"

TRACK 09 AUDIO
   INDEX 01 38:13:55
   PERFORMER "Blu Mar Ten"
   TITLE "Black Water [Crossed Wires mix]"

TRACK 10 AUDIO
   INDEX 01 43:04:00
   PERFORMER "The Insiders"
   TITLE "Off the Cuff"

TRACK 11 AUDIO
   INDEX 01 47:30:30
   PERFORMER "Stress Level & TC1"
   TITLE "Free"

TRACK 12 AUDIO
   INDEX 01 52:04:10
   PERFORMER "Redeyes"
   TITLE "Double Funk"

TRACK 13 AUDIO
   INDEX 01 56:14:50
   PERFORMER "Redeyes"
   TITLE "When Will It Ever End"

TRACK 14 AUDIO
   INDEX 01 61:36:40
   PERFORMER "Sonic Saturation"
   TITLE "The Sunbeam on Her Face"