Jump to page content

Cue sheet for jx3p – 035. Digital Dimensions Mix

Original cue sheet file See tracklist Tracklist and cue sheet archive

FILE "jx3p - 035. Digital Dimensions Mix.mp3" MP3
PERFORMER "jx3p"
TITLE "Digital Dimensions Mix"

TRACK 01 AUDIO
   PERFORMER "Roeg Du Casq"
   TITLE "Lost Forever"

REM LABEL "Strictly Digital"
REM CAT# "SDDB063"

   INDEX 01 00:00:00

TRACK 02 AUDIO
   PERFORMER "Pariah"
   TITLE "Re-United"

REM LABEL "Strictly Digital"
REM CAT# "SDDB104"

   INDEX 01 06:28:27

TRACK 03 AUDIO
   PERFORMER "Pariah"
   TITLE "Sweet Dreams"

REM LABEL "Strictly Digital"
REM CAT# "SDDB095"

   INDEX 01 12:10:45

TRACK 04 AUDIO
   PERFORMER "Tidal"
   TITLE "The Prayer"

REM LABEL "Strictly Digital"
REM CAT# "SDDB172"

   INDEX 01 17:47:72

TRACK 05 AUDIO
   PERFORMER "Reguez"
   TITLE "Safe Haven"

REM LABEL "Strictly Digital"
REM CAT# "SDDB239"

   INDEX 01 21:32:40

TRACK 06 AUDIO
   PERFORMER "D Bridge"
   TITLE "Dolls"

REM LABEL "Bingo Beats"
REM CAT# "BINGO028"

   INDEX 01 27:48:24

TRACK 07 AUDIO
   PERFORMER "Mingus"
   TITLE "Absence"

REM LABEL "Strictly Digital"
REM CAT# "SDDB007"

   INDEX 01 32:59:67

TRACK 08 AUDIO
   PERFORMER "Pariah"
   TITLE "Rhode To Nowhere"

REM LABEL "Strictly Digital"
REM CAT# "SDDB075"

   INDEX 01 37:54:47

TRACK 09 AUDIO
   PERFORMER "Mav"
   TITLE "Untitled 41"

REM LABEL "Unreleased"
REM CAT# "forthcoming on Vibez"

   INDEX 01 44:16:28

TRACK 10 AUDIO
   PERFORMER "Ethereal 77"
   TITLE "Religion"

REM LABEL "Basedaddy"
REM CAT# "B01CD"

   INDEX 01 50:15:49

TRACK 11 AUDIO
   PERFORMER "Matizz"
   TITLE "Grace"

REM LABEL "Strictly Digital"
REM CAT# "SDDB103"

   INDEX 01 55:13:11

TRACK 12 AUDIO
   PERFORMER "Modemellow"
   TITLE "Eleven Dimensions"

REM LABEL "Strictly Digital"
REM CAT# "SDDB162"

   INDEX 01 59:40:55

TRACK 13 AUDIO
   PERFORMER "Deep Blue"
   TITLE "Open Love"

REM LABEL "Scale"
REM CAT# "SCALE003CD"

   INDEX 01 64:49:52

TRACK 14 AUDIO
   PERFORMER "Fanu"
   TITLE "Tribes (Remix)"

REM LABEL "Warm Communications"
REM CAT# "WARMLTD001"

   INDEX 01 69:03:32