Jump to page content

Cue sheet for jx3p – 034. Rhodes Ahead Mix

Original cue sheet file See tracklist Tracklist and cue sheet archive

FILE "jx3p - 034. Rhodes Ahead Mix.mp3" MP3
PERFORMER "jx3p"
TITLE "Rhodes Ahead Mix"

TRACK 01 AUDIO
   PERFORMER "CCCP"
   TITLE "Russian Roulette"

REM LABEL "Nautilus"
REM CAT# "NAUT003"

   INDEX 01 00:00:00

TRACK 02 AUDIO
   PERFORMER "David Holmes"
   TITLE "Gone [PFM remix]"

REM LABEL "Go!Discs"
REM CAT# "GODRX142"

   INDEX 01 07:06:49

TRACK 03 AUDIO
   PERFORMER "DJ Marky & XRS"
   TITLE "Moments of Lust [Makoto remix]"

REM LABEL "Innerground"
REM CAT# "INN014"

   INDEX 01 12:36:25

TRACK 04 AUDIO
   PERFORMER "Basic Operations"
   TITLE "Vintage Elecktric"

REM LABEL "Tangent"
REM CAT# "TGN012"

   INDEX 01 17:04:18

TRACK 05 AUDIO
   PERFORMER "Utah Jazz"
   TITLE "Runaway"

REM LABEL "Liquid V"
REM CAT# "LQD013"

   INDEX 01 21:52:66

TRACK 06 AUDIO
   PERFORMER "Kase & Quark"
   TITLE "Fading Grey ft. Sabre"

REM LABEL "(unrel.)"
REM CAT# "N/A"

   INDEX 01 28:08:04

TRACK 07 AUDIO
   PERFORMER "St Cal"
   TITLE "Light Night Squeeze"

REM LABEL "Signature"
REM CAT# "SIG008"

   INDEX 01 33:17:02

TRACK 08 AUDIO
   PERFORMER "Infuzoria"
   TITLE "Iceberg"

REM LABEL "(unrel.)"
REM CAT# "N/A"

   INDEX 01 37:19:67

TRACK 09 AUDIO
   PERFORMER "Electrosoul System"
   TITLE "Magic"

REM LABEL "Strictly Digital"
REM CAT# "SDDB220"

   INDEX 01 43:02:26

TRACK 10 AUDIO
   PERFORMER "Annie Lennox"
   TITLE "A Thousand Beautiful Things [Blu Mar Ten vocal mix]"

REM LABEL "BMG"
REM CAT# "THOUSAND2"

   INDEX 01 48:48:32

TRACK 11 AUDIO
   PERFORMER "A Sides"
   TITLE "Reunions"

REM LABEL "BINGO"
REM CAT# "BINGO042"

   INDEX 01 54:34:36

TRACK 12 AUDIO
   PERFORMER "Cujo"
   TITLE "Clarity"

REM LABEL "Soundtrax"
REM CAT# "FILM014"

   INDEX 01 60:08:73

TRACK 13 AUDIO
   PERFORMER "Bachelors of Science & Stunna"
   TITLE "Rhodes Ahead"

REM LABEL "Phuzion"
REM CAT# "PHUZION002"

   INDEX 01 63:49:51

TRACK 14 AUDIO
   PERFORMER "MC Conrad"
   TITLE "Dawn of Harmony"

REM LABEL "Good Looking"
REM CAT# "GLRCD004"

   INDEX 01 70:29:56