Jump to page content

Cue sheet for jx3p – 020. Nucleus Mix

Original cue sheet file See tracklist Tracklist and cue sheet archive

FILE "jx3p - 020. Nucleus Mix.mp3" MP3
PERFORMER "jx3p"
TITLE "Nucleus Mix"

TRACK 01 AUDIO
   TITLE "Freescreen"
   PERFORMER "Mykra"
   INDEX 01 00:00:00

TRACK 02 AUDIO
   TITLE "Siren Song"
   PERFORMER "Fanu"
   INDEX 01 06:48:00

TRACK 03 AUDIO
   TITLE "Rebound [Nookie mix]"
   PERFORMER "Personelle"
   INDEX 01 13:46:00

TRACK 04 AUDIO
   TITLE "Feenin [LTJ Bukem remix]"
   PERFORMER "Jodeci"
   INDEX 01 18:50:00

TRACK 05 AUDIO
   TITLE "Nucleus"
   PERFORMER "Seba"
   INDEX 01 24:10:00

TRACK 06 AUDIO
   TITLE "Apollo"
   PERFORMER "Voyager"
   INDEX 01 26:50:00

TRACK 07 AUDIO
   TITLE "Planet 3 (Cubed)"
   PERFORMER "Alaska & Paradox"
   INDEX 01 31:35:00

TRACK 08 AUDIO
   TITLE "Futureproof"
   PERFORMER "Blu Mar Ten"
   INDEX 01 37:40:00

TRACK 09 AUDIO
   TITLE "Gemini"
   PERFORMER "Calibre"
   INDEX 01 44:08:00

TRACK 10 AUDIO
   TITLE "Surround"
   PERFORMER "Commix"
   INDEX 01 48:56:00

TRACK 11 AUDIO
   TITLE "Millionaire"
   PERFORMER "Logistics"
   INDEX 01 54:49:00

TRACK 12 AUDIO
   TITLE "Heaven"
   PERFORMER "Carlito"
   INDEX 01 59:57:20

TRACK 13 AUDIO
   TITLE "Blue 52"
   PERFORMER "Big Bud"
   INDEX 01 64:11:55

TRACK 14 AUDIO
   TITLE "Klass of 76"
   PERFORMER "Solid State"
   INDEX 01 70:15:00