Jump to page content

Cue sheet for jx3p – 019. Nebular Forces Mix

Original cue sheet file See tracklist Tracklist and cue sheet archive

FILE "jx3p - 019. Nebular Forces Mix.mp3" MP3
PERFORMER "jx3p"
TITLE "Nebula Forces Mix"

TRACK 01 AUDIO
   TITLE "A Nebula Force"
   PERFORMER "P.B.K."
   INDEX 01 00:00:00

TRACK 02 AUDIO
   TITLE "Emerge"
   PERFORMER "Orion"
   INDEX 01 08:17:00

TRACK 03 AUDIO
   TITLE "Quorma [The Underwolves remix]"
   PERFORMER "King Kooba"
   INDEX 01 15:15:20

TRACK 04 AUDIO
   TITLE "Finer Things"
   PERFORMER "Wax Doctor"
   INDEX 01 20:49:20

TRACK 05 AUDIO
   TITLE "Wave"
   PERFORMER "Makoto"
   INDEX 01 27:05:00

TRACK 06 AUDIO
   TITLE "Like This"
   PERFORMER "Nu Moon"
   INDEX 01 34:45:00

TRACK 07 AUDIO
   TITLE "Future Not Inert"
   PERFORMER "ATL"
   INDEX 01 40:37:00

TRACK 08 AUDIO
   TITLE "The Sea [PFM remix]"
   PERFORMER "St. Etienne"
   INDEX 01 47:01:20

TRACK 09 AUDIO
   TITLE "In the Zone"
   PERFORMER "Aquasky"
   INDEX 01 53:30:00

TRACK 10 AUDIO
   TITLE "Desert Wind"
   PERFORMER "Sonic"
   INDEX 01 59:40:00

TRACK 11 AUDIO
   TITLE "Striction [ICR 'Loveshine' mix]"
   PERFORMER "SDD"
   INDEX 01 64:29:40

TRACK 12 AUDIO
   TITLE "Spaced Out"
   PERFORMER "Sonic"
   INDEX 01 69:07:00

TRACK 13 AUDIO
   TITLE "Totally Distracted"
   PERFORMER "David Carbone & Kubiks ft. Clarie T"
   INDEX 01 74:09:45

TRACK 14 AUDIO
   TITLE "U Dont Know My Name [Duo Infernale remix]"
   PERFORMER "Alicia Keys"
   INDEX 01 80:02:16

TRACK 15 AUDIO
   TITLE "Higher (Mi Amor)"
   PERFORMER "Marcel"
   INDEX 01 85:24:00