Jump to page content

Cue sheet for jx3p – 016. Deep Pressure Mix

Original cue sheet file See tracklist Tracklist and cue sheet archive

FILE "jx3p - 016. Deep Pressure Mix.mp3" MP3
PERFORMER "jx3p"
TITLE "Deep Pressure Mix"

TRACK 01 AUDIO
   TITLE "South Deep Pressure"
   PERFORMER "Gnome"
   INDEX 01 00:00:00

TRACK 02 AUDIO
   TITLE "Northern Lights (Remix)"
   PERFORMER "Essence of Aura"
   INDEX 01 08:16:59

TRACK 03 AUDIO
   TITLE "Pussycat"
   PERFORMER "Pfm"
   INDEX 01 12:22:00

TRACK 04 AUDIO
   TITLE "Ital Lion Tuff Head"
   PERFORMER "Equinox"
   INDEX 01 16:25:10

TRACK 05 AUDIO
   TITLE "Lucid"
   PERFORMER "JCB"
   INDEX 01 22:29:69

TRACK 06 AUDIO
   TITLE "Right Way"
   PERFORMER "Future Bound"
   INDEX 01 29:14:20

TRACK 07 AUDIO
   TITLE "Lovesick"
   PERFORMER "High Contrast"
   INDEX 01 36:44:55

TRACK 08 AUDIO
   TITLE "Drowning (D.Kay Remix)"
   PERFORMER "Mathematics"
   INDEX 01 41:47:30

TRACK 09 AUDIO
   TITLE "Deep Joy"
   PERFORMER "Logistics"
   INDEX 01 46:09:10

TRACK 10 AUDIO
   TITLE "What I Want"
   PERFORMER "Stress Level & TC1"
   INDEX 01 50:30:00

TRACK 11 AUDIO
   TITLE "Rough Coast"
   PERFORMER "Hold Tight"
   INDEX 01 54:24:60

TRACK 12 AUDIO
   TITLE "Racing Green"
   PERFORMER "High Contrast"
   INDEX 01 58:29:03

TRACK 13 AUDIO
   TITLE "Take Control"
   PERFORMER "Stress Level & TC1"
   INDEX 01 62:33:50

TRACK 14 AUDIO
   TITLE "4 Manchester"
   PERFORMER "Sonic"
   INDEX 01 68:11:30

TRACK 15 AUDIO
   TITLE "Let Love Shine Through"
   PERFORMER "Essence of Aura"
   INDEX 01 73:10:55