Jump to page content

Cue sheet for jx3p – 006. Jupiter Fields Mix

Original cue sheet file See tracklist Tracklist and cue sheet archive

FILE "jx3p - 006. Jupiter Fields Mix.mp3" MP3
PERFORMER "jx3p"
TITLE "Jupiter Fields Mix"

TRACK 01 AUDIO
   TITLE "High Times"
   PERFORMER "Big Bud"
   INDEX 01 00:00:00

TRACK 02 AUDIO
   TITLE "Hypersleep"
   PERFORMER "Voyager"
   INDEX 01 06:26:10

TRACK 03 AUDIO
   TITLE "Everything Changes"
   PERFORMER "Kapta"
   INDEX 01 10:35:00

TRACK 04 AUDIO
   TITLE "Reminiscent Rhythm"
   PERFORMER "PHD & Conrad"
   INDEX 01 15:48:20

TRACK 05 AUDIO
   TITLE "Witness"
   PERFORMER "Intense"
   INDEX 01 21:07:20

TRACK 06 AUDIO
   TITLE "Solar"
   PERFORMER "Scalar"
   INDEX 01 25:39:00

TRACK 07 AUDIO
   TITLE "Aurora Boreal"
   PERFORMER "Alex B"
   INDEX 01 29:27:00

TRACK 08 AUDIO
   TITLE "Jupiter Fields"
   PERFORMER "Makoto"
   INDEX 01 31:40:40

TRACK 09 AUDIO
   TITLE "The Sorcerer"
   PERFORMER "Pacific Heights"
   INDEX 01 38:53:00

TRACK 10 AUDIO
   TITLE "Night Train"
   PERFORMER "Appaloosa"
   INDEX 01 44:40:00

TRACK 11 AUDIO
   TITLE "Travelstar"
   PERFORMER "Makoto & Akira"
   INDEX 01 51:23:00

TRACK 12 AUDIO
   TITLE "Beyond the Fundamental"
   PERFORMER "Big Bud"
   INDEX 01 58:10:00

TRACK 13 AUDIO
   TITLE "Polarized"
   PERFORMER "Pacific Heights"
   INDEX 01 64:33:00

TRACK 14 AUDIO
   TITLE "Closer to the Source"
   PERFORMER "LTJ Bukem"
   INDEX 01 70:05:00

TRACK 15 AUDIO
   TITLE "Stream"
   PERFORMER "Infuzoria"
   INDEX 01 75:38:55

TRACK 16 AUDIO
   TITLE "Electrofusion"
   PERFORMER "Greenfly"
   INDEX 01 80:00:40

TRACK 17 AUDIO
   TITLE "Take You Higher"
   PERFORMER "Greg Packer"
   INDEX 01 83:41:20

TRACK 18 AUDIO
   TITLE "Rhythm of Life"
   PERFORMER "Electrosoul System"
   INDEX 01 88:15:00

TRACK 19 AUDIO
   TITLE "Sonar"
   PERFORMER "Greenfly"
   INDEX 01 92:57:35

TRACK 20 AUDIO
   TITLE "Hidden Half"
   PERFORMER "Pacific Heights"
   INDEX 01 97:05:10

TRACK 21 AUDIO
   TITLE "Black Ice"
   PERFORMER "Intense"
   INDEX 01 103:43:55

TRACK 22 AUDIO
   TITLE "So Far"
   PERFORMER "Sonic Generation"
   INDEX 01 109:00:40

TRACK 23 AUDIO
   TITLE "Mayday"
   PERFORMER "Rantoul"
   INDEX 01 115:53:40

TRACK 24 AUDIO
   TITLE "Euphonix"
   PERFORMER "Aural Imbalance & David Holness"
   INDEX 01 118:52:00