Jump to page content

Cue sheet for jx3p – 003. Solar Systems Mix

Original cue sheet file See tracklist Tracklist and cue sheet archive

FILE "jx3p - 003. Solar Systems Mix.mp3" MP3
PERFORMER "jx3p"
TITLE "Solar Systems Mix"

TRACK 01 AUDIO
   TITLE Aquadrome
   PERFORMER "Initial Research"
   INDEX 01 00:00:00

TRACK 02 AUDIO
   TITLE Redeemer
   PERFORMER Underwolves
   INDEX 01 03:23:71

TRACK 03 AUDIO
   TITLE "You Were... [King Kooba remix]"
   PERFORMER "The Meateaters"
   INDEX 01 07:10:08

TRACK 04 AUDIO
   TITLE Solitude
   PERFORMER Orion
   INDEX 01 10:56:35

TRACK 05 AUDIO
   TITLE Pieces
   PERFORMER "Seba & Lenk"
   INDEX 01 13:57:26

TRACK 06 AUDIO
   TITLE Awakening
   PERFORMER Orion
   INDEX 01 19:27:16

TRACK 07 AUDIO
   TITLE "Aura [Intersidereal remix]"
   PERFORMER Tidal
   INDEX 01 24:49:18

TRACK 08 AUDIO
   TITLE "More Than One"
   PERFORMER "Cyde FX"
   INDEX 01 31:13:42

TRACK 09 AUDIO
   TITLE Revelation
   PERFORMER "Chris J And Casper"
   INDEX 01 35:10:55

TRACK 10 AUDIO
   TITLE "Sky High"
   PERFORMER Makoto
   INDEX 01 40:59:41

TRACK 11 AUDIO
   TITLE Treading
   PERFORMER "Jonny L"
   INDEX 01 44:46:35

TRACK 12 AUDIO
   TITLE Monoton
   PERFORMER "Parallel Lines"
   INDEX 01 47:13:36

TRACK 13 AUDIO
   TITLE Shinjuku
   PERFORMER "Nucleus and Paradox"
   INDEX 01 49:41:04

TRACK 14 AUDIO
   TITLE Solar
   PERFORMER Intense
   INDEX 01 53:15:54

TRACK 15 AUDIO
   TITLE "Staticky [Klute remix]"
   PERFORMER "Sarah Rebdauh"
   INDEX 01 56:36:09

TRACK 16 AUDIO
   TITLE "Our Hands [Grayarea remix]"
   PERFORMER Bjork
   INDEX 01 59:42:23

TRACK 17 AUDIO
   TITLE "Far East"
   PERFORMER Makoto
   INDEX 01 61:57:73

TRACK 18 AUDIO
   TITLE Guidelines
   PERFORMER Seba
   INDEX 01 63:56:45

TRACK 19 AUDIO
   TITLE "Not the Only One"
   PERFORMER "Nu:Tone ft. Logistics"
   INDEX 01 70:37:43

TRACK 20 AUDIO
   TITLE "Give U Everything"
   PERFORMER Commix
   INDEX 01 74:11:72

TRACK 21 AUDIO
   TITLE "Get It On"
   PERFORMER "Greg Packer"
   INDEX 01 78:27:15

TRACK 22 AUDIO
   TITLE "Time [Album version]"
   PERFORMER "Makoto ft. Cleveland Watkiss"
   INDEX 01 84:22:18

TRACK 23 AUDIO
   TITLE "Come Easy"
   PERFORMER "D Kay And Epsilon"
   INDEX 01 89:32:60

TRACK 24 AUDIO
   TITLE "Live Forever"
   PERFORMER Commix
   INDEX 01 92:30:51

TRACK 25 AUDIO
   TITLE "Wreckin' Ball [Professor Stretch remix]"
   PERFORMER "Dogs Deluxe"
   INDEX 01 94:32:57

TRACK 26 AUDIO
   TITLE Forever
   PERFORMER Syntax
   INDEX 01 98:48:09

TRACK 27 AUDIO
   TITLE "Do What You Gotta Do"
   PERFORMER Pablo
   INDEX 01 101:45:50

TRACK 28 AUDIO
   TITLE Contact
   PERFORMER "Jazz Cartel"
   INDEX 01 103:53:05

TRACK 29 AUDIO
   TITLE "Positive Nations"
   PERFORMER Intense
   INDEX 01 107:41:42

TRACK 30 AUDIO
   TITLE "The Sense of Our Light"
   PERFORMER "Mystic Moods"
   INDEX 01 109:14:42

TRACK 31 AUDIO
   TITLE "On the Nile"
   PERFORMER Peshay
   INDEX 01 111:10:02