Jump to page content

Cue sheet for TeeBee – Dogs On Acid Mix, February 2005

Original cue sheet file See tracklist Tracklist and cue sheet archive

FILE "TeeBee - Dogs On Acid Mix, February 2005.mp3" MP3
PERFORMER "TeeBee"
TITLE "Dogs On Acid Mix, February 2005"

TRACK 01 AUDIO
   INDEX 01 00:00:00
   TITLE "Submerged"
   PERFORMER "Break"

TRACK 02 AUDIO
   INDEX 01 02:33:00
   TITLE "The Distance"
   PERFORMER "Noisia"

TRACK 03 AUDIO
   INDEX 01 04:00:00
   TITLE "Get Myself To You"
   PERFORMER "Calyx"

TRACK 04 AUDIO
   INDEX 01 05:00:00
   TITLE "Tearing Us Apart"
   PERFORMER "Calyx"

TRACK 05 AUDIO
   INDEX 01 07:40:00
   TITLE "Desolation [TeeBee remix]"
   PERFORMER "Noisia"

TRACK 06 AUDIO
   INDEX 01 11:00:00
   TITLE "True Identity"
   PERFORMER "Calyx"

TRACK 07 AUDIO
   INDEX 01 13:20:00
   TITLE "State of Unrest"
   PERFORMER "TeeBee"

TRACK 08 AUDIO
   INDEX 01 15:40:00
   TITLE "Species"
   PERFORMER "Phace"

TRACK 09 AUDIO
   INDEX 01 18:54:00
   TITLE "Sandworm"
   PERFORMER "Noisia"

TRACK 10 AUDIO
   INDEX 01 20:40:00
   TITLE "Don't Lie To Me"
   PERFORMER "TeeBee"

TRACK 11 AUDIO
   INDEX 01 25:00:00
   TITLE "Polymers"
   PERFORMER "Phace"

TRACK 12 AUDIO
   INDEX 01 27:55:00
   TITLE "April"
   PERFORMER "TeeBee"

TRACK 13 AUDIO
   INDEX 01 30:20:00
   TITLE "Are You Ready [Hive & Gridlok remix]"
   PERFORMER "Calyx"

TRACK 14 AUDIO
   INDEX 01 31:49:00
   TITLE "Mercury"
   PERFORMER "Photek & TeeBee"

TRACK 15 AUDIO
   INDEX 01 34:27:00
   TITLE "No ID"
   PERFORMER "Photek & TeeBee"

TRACK 16 AUDIO
   INDEX 01 37:17:00
   TITLE "Brainwave"
   PERFORMER "Phace"

TRACK 17 AUDIO
   INDEX 01 40:57:00
   TITLE "Skullfucked"
   PERFORMER "Corrupt Souls"

TRACK 18 AUDIO
   INDEX 01 44:37:00
   TITLE "Lost"
   PERFORMER "TeeBee & Noire"

TRACK 19 AUDIO
   INDEX 01 46:28:00
   TITLE "Immersed"
   PERFORMER "Marcus Intalex"

TRACK 20 AUDIO
   INDEX 01 50:27:00
   TITLE "Go Between"
   PERFORMER "Commix"

TRACK 21 AUDIO
   INDEX 01 54:35:00
   TITLE "Quiet Moment [Vocal mix]"
   PERFORMER "TeeBee"