Jump to page content

Cue sheet for Sander Kleinenberg – Essential Mix 2001-06-09

Original cue sheet file See tracklist Tracklist and cue sheet archive

FILE "Sander Kleinenberg - Essential Mix 2001-06-09.mp3" MP3
PERFORMER "Sander Kleinenberg"
TITLE "Radio 1 Essential Mix 09/06/2001"

REM Cue sheet by Daniel Beardsmore, Telcontar.net
REM http://telcontar.net/store/archive/tracklists/
REM Converted by tracklist2cue.plw 2011-08-18

TRACK 01 AUDIO
   INDEX 01 000:00:00
   PERFORMER "Tijuana"
   TITLE "Groove is in the Air [Simon's Sweepapella]"

TRACK 02 AUDIO
   INDEX 01 001:11:00
   PERFORMER "Oneiro"
   TITLE "Shhhhhh [Circles and Circles of Sorrow]"

TRACK 03 AUDIO
   INDEX 01 004:23:00
   PERFORMER "Altocamet"
   TITLE "Pasion Descalza [Swayzak's vocal mix 1]"

TRACK 04 AUDIO
   INDEX 01 007:14:00
   PERFORMER "Lunic & Freddy Valerio"
   TITLE "We Beg Your Pardon America"

TRACK 05 AUDIO
   INDEX 01 011:49:00
   PERFORMER "Lexicon Avenue"
   TITLE "From Tusk Till Dawn [Sander Kleinenberg's Audio Paranoid remix]"

TRACK 06 AUDIO
   INDEX 01 018:53:00
   PERFORMER "PMT"
   TITLE "Deeper Water [Sander Kleinenberg's Caffeine mix]"

TRACK 07 AUDIO
   INDEX 01 026:51:00
   PERFORMER "Sunkissed"
   TITLE "Round Trip [Steve Porter mix]"

TRACK 08 AUDIO
   INDEX 01 033:54:00
   PERFORMER "Marcelo Castelli"
   TITLE "Sonar [Original mix]"

TRACK 09 AUDIO
   INDEX 01 040:27:00
   PERFORMER "Depeche Mode"
   TITLE "I Feel Loved [Danny Tenaglia's Labour of Love dub]"

TRACK 10 AUDIO
   INDEX 01 048:30:00
   PERFORMER "Christian Hornbostel"
   TITLE "Back to the Music"

TRACK 11 AUDIO
   INDEX 01 051:20:00
   PERFORMER "PQM's DJ Tools"
   TITLE "How Soon Is Now [PQM's Tripapella]"

TRACK 12 AUDIO
   INDEX 01 054:35:00
   PERFORMER "Anterra"
   TITLE "Distance"

TRACK 13 AUDIO
   INDEX 01 057:03:00
   PERFORMER "Seth Lawrence"
   TITLE "Future Sound of Amherst [Starecase mix]"

TRACK 14 AUDIO
   INDEX 01 062:58:00
   PERFORMER "Mike Vandenberg"
   TITLE "Blue Bayou"

TRACK 15 AUDIO
   INDEX 01 068:10:00
   PERFORMER "Sander Kleinenberg"
   TITLE "My Lexicon [Cass & Slide mix]"

TRACK 16 AUDIO
   INDEX 01 076:16:00
   PERFORMER "Luigi"
   TITLE "Creation [Blackwatch East End mix]"

TRACK 17 AUDIO
   INDEX 01 081:28:00
   PERFORMER "Dan Robbins"
   TITLE "DBD [Madam remix]"

TRACK 18 AUDIO
   INDEX 01 089:20:00
   PERFORMER "Fluke"
   TITLE "Bullit"

TRACK 19 AUDIO
   INDEX 01 095:40:00
   PERFORMER "Chamber"
   TITLE "Thunder Dub"

TRACK 20 AUDIO
   INDEX 01 103:00:00
   PERFORMER "Van Bellen"
   TITLE "20/20 [Saints & Sinners Incensed remix]"

TRACK 21 AUDIO
   INDEX 01 112:11:00
   PERFORMER "Fluke"
   TITLE "My Spine"

TRACK 22 AUDIO
   INDEX 01 117:25:00
   PERFORMER "Tijuana"
   TITLE "Groove is in the Air [Simon's Sweepapella]"

TRACK 23 AUDIO
   INDEX 01 118:23:00
   PERFORMER "Cass & Slide"
   TITLE "All The Freaks"