Jump to page content

Cue sheet for Paul van Dyk – Live at Rosenmontagsrave 2002-02-11

Original cue sheet file See tracklist Tracklist and cue sheet archive

FILE "Paul van Dyk - Live at Rosenmontagsrave 2002-02-11.mp3" MP3
PERFORMER "Paul van Dyk"
TITLE "Live at Rosenmontagsrave 11/02/2002"

REM Fixed the structure of the file and made a few typo corrections
REM I am not guaranteeing the authenticity of the IDs or times!

TRACK 01 AUDIO
   PERFORMER "Junk Project"
   TITLE "Braintool"
   INDEX 01 00:00:00

TRACK 02 AUDIO
   PERFORMER "Trancesetters"
   TITLE "The Saga [Original mix]"
   INDEX 01 06:24:00

TRACK 03 AUDIO
   PERFORMER "Funk Einsatz"
   TITLE "Punk"
   INDEX 01 12:12:00

TRACK 04 AUDIO
   PERFORMER "Alvin Dorsey & Nick Petrel"
   TITLE "K [Original mix]"
   INDEX 01 18:21:00

TRACK 05 AUDIO
   PERFORMER "The Space Brothers"
   TITLE "Everywhere I Go [Paul van Dyk rework]"
   INDEX 01 22:24:00

TRACK 06 AUDIO
   PERFORMER "Solid Sleep"
   TITLE "Club Attack [Paul van Dyk remix]"
   INDEX 01 27:45:00

TRACK 07 AUDIO
   PERFORMER "Romanthony"
   TITLE "Never Fuck [Paul van Dyk's Late Night remix]"
   INDEX 01 34:00:00

TRACK 08 AUDIO
   PERFORMER "Roger Goode"
   TITLE "In The Beginning [Ferry Corsten remix]"
   INDEX 01 39:28:00

TRACK 09 AUDIO
   PERFORMER "Avanza"
   TITLE "Take Control [Original dub mix]"
   INDEX 01 44:20:00

TRACK 10 AUDIO
   PERFORMER "Blank & Jones"
   TITLE "Desire [4 Strings remix]"
   INDEX 01 49:10:00

TRACK 11 AUDIO
   PERFORMER "Aquanuts"
   TITLE "Deep Sea [Martin Eyerer remix]"
   INDEX 01 54:38:00

TRACK 12 AUDIO
   PERFORMER "Roland Klinkenberg & Danny Bakker"
   TITLE "Keep on Rockin'"
   INDEX 01 59:58:00

TRACK 13 AUDIO
   PERFORMER "Green Velvet"
   TITLE "La La Land [Thomas Krome remix]"
   INDEX 01 63:41:00

TRACK 14 AUDIO
   PERFORMER "Members of Mayday"
   TITLE "Sonic Empire [Jan Driver remix]"
   INDEX 01 66:44:00

TRACK 15 AUDIO
   PERFORMER "Starsplash"
   TITLE "China Lounge"
   INDEX 01 70:35:00

TRACK 16 AUDIO
   PERFORMER "Bill Hamel"
   TITLE "Perspectives [Expansion remix]"
   INDEX 01 74:29:00

TRACK 17 AUDIO
   PERFORMER "Ayumi Hamasaki"
   TITLE "Unite [Airwave dub]"
   INDEX 01 79:23:00

TRACK 18 AUDIO
   PERFORMER "BK & Nick Sentience"
   TITLE "Flash [Original mix]"
   INDEX 01 84:14:00

TRACK 19 AUDIO
   PERFORMER "Paul van Dyk"
   TITLE "Animacion"
   INDEX 01 90:41:00

TRACK 20 AUDIO
   PERFORMER "Ayumi Hamasaki"
   TITLE "M [Above & Beyond's Typhoon dub]"
   INDEX 01 97:32:00

TRACK 21 AUDIO
   PERFORMER "Kosheen"
   TITLE "Catch [Hiver & Hammer remix]"
   INDEX 01 100:25:00

TRACK 22 AUDIO
   PERFORMER "Guardians of the Earth"
   TITLE "Starchildren [Paul van Dyk rework]"
   INDEX 01 106:35:00

TRACK 23 AUDIO
   PERFORMER "4 Strings"
   TITLE "Into the Night [Original mix]"
   INDEX 01 112:06:00

TRACK 24 AUDIO
   PERFORMER "Nu-NRG"
   TITLE "Dreamland"
   INDEX 01 115:38:00