Jump to page content

Cue sheet for Paul van Dyk – Live at Innercity 2000-12-30 pt 1

Original cue sheet file See tracklist Tracklist and cue sheet archive

FILE "Paul van Dyk - Live at Innercity 2000-12-30 pt 1.mp3" MP3
TITLE "Live at Innercity 30/12/2000 part 1"
PERFORMER "Paul van Dyk"

TRACK 01 AUDIO
   TITLE "Movement"
   PERFORMER "Paul van Dyk"
   INDEX 01 00:00:00

TRACK 02 AUDIO
   TITLE "Sparc"
   PERFORMER "Futureshock"
   INDEX 01 05:59:22

TRACK 03 AUDIO
   TITLE "Das Glockenspiel [Humate remix]"
   PERFORMER "Schiller"
   INDEX 01 08:47:35

TRACK 04 AUDIO
   TITLE "W.E.T."
   PERFORMER "DJ Erwin ft. Shame"
   INDEX 01 16:00:49

TRACK 05 AUDIO
   TITLE "Alternate [Michael de Heij mix]"
   PERFORMER "Andreas Kauffelt"
   INDEX 01 19:48:03

TRACK 06 AUDIO
   TITLE "You Were There [Thomas Schumacher remix]"
   PERFORMER "Resistance D"
   INDEX 01 22:41:66

TRACK 07 AUDIO
   TITLE "Under 4 Ever [Gil's Spiritual remix]"
   PERFORMER "16C+"
   INDEX 01 26:59:40

TRACK 08 AUDIO
   TITLE "Reactivate [Trasp 1 mix]"
   PERFORMER "Bismark"
   INDEX 01 32:50:41

TRACK 09 AUDIO
   TITLE "Silence [Club mix]"
   PERFORMER "Taiko"
   INDEX 01 37:17:67

TRACK 10 AUDIO
   TITLE "Sunrise [Pulser's 6 AM vocal mix]"
   PERFORMER "Goldenscan"
   INDEX 01 42:53:44

TRACK 11 AUDIO
   TITLE "Deep Down Below [Humate remix]"
   PERFORMER "RMB"
   INDEX 01 49:14:38

TRACK 12 AUDIO
   TITLE "Autumn"
   PERFORMER "Paul van Dyk"
   INDEX 01 54:48:61

TRACK 13 AUDIO
   TITLE "Another Way"
   PERFORMER "Paul van Dyk"
   INDEX 01 60:50:15