Jump to page content

Cue sheet for Kyau vs Albert – April 2005 DJ Mix

Original cue sheet file See tracklist Tracklist and cue sheet archive

PERFORMER "Kyau vs Albert"
TITLE "April 2005 DJ Mix"
FILE "Kyau vs Albert - April 2005 DJ Mix.mp3" MP3

REM CUE made by http://music.anuga.se/

TRACK 01 AUDIO
   TITLE "Solace [Vornostov and Dorohov remix]"
   PERFORMER "Lustral"
   INDEX 01 00:00:00

TRACK 02 AUDIO
   TITLE "Believe [Max Graham remix]"
   PERFORMER "Santiago Nino"
   INDEX 01 07:00:31

TRACK 03 AUDIO
   TITLE "Need to Feel Loved [Seb Fontaine remix]"
   PERFORMER "Reflekt"
   INDEX 01 12:07:74

TRACK 04 AUDIO
   TITLE "2day"
   PERFORMER "Ronski Speed"
   INDEX 01 18:48:34

TRACK 05 AUDIO
   TITLE "Asarja [Ronski Speed mix]"
   PERFORMER "Mirco de Govia and Ronski Speed"
   INDEX 01 23:55:11

TRACK 06 AUDIO
   TITLE "Appears [Kyau vs Albert remix]"
   PERFORMER "Ayu"
   INDEX 01 30:13:53

TRACK 07 AUDIO
   TITLE "Desert Eagle"
   PERFORMER "Kaste"
   INDEX 01 36:27:71

TRACK 08 AUDIO
   TITLE "The Unknown"
   PERFORMER "White Water"
   INDEX 01 44:25:28

TRACK 09 AUDIO
   TITLE "Language [Santiago Nino Dub Tech]"
   PERFORMER "Hammer and Bennett"
   INDEX 01 47:59:54

TRACK 10 AUDIO
   TITLE "Cueburner"
   PERFORMER "Relic"
   INDEX 01 54:54:43