Jump to page content

Cue sheet for Gareth Emery (GTR) – Live on Transcend 2003-08-25

Original cue sheet file Tracklist and cue sheet archive

PERFORMER "Gareth Emery"
TITLE "Gareth Emery Live at Transcend Trance Airwaves 24/08/2003"
FILE "Gareth Emery (GTR) - Live on Transcend 2003-08-25.mp3" MP3

TRACK 01 AUDIO

REM correct time

   PERFORMER "Mandrake"
   TITLE "Universal Soul [Original mix]"
   INDEX 01 00:00:00

TRACK 02 AUDIO

REM correct time

   PERFORMER "Andy Hunter"
   TITLE "Go [Tommie Sunshine 'Big Room Big Love' mix]"
   INDEX 01 03:24:00

TRACK 03 AUDIO

REM correct time

   PERFORMER "Spacelover"
   TITLE "Spacelover [Daniele Tignino Space Dark mix]"
   INDEX 01 09:41:00

TRACK 04 AUDIO

REM correct time

   PERFORMER "Pink Flood"
   TITLE "Insecurity [Shane 54 mix]"
   INDEX 01 16:13:00

TRACK 05 AUDIO

REM correct time

   PERFORMER "Little Wonder"
   TITLE "Eclipse [Leama & Moor mix]"
   INDEX 01 23:18:00

TRACK 06 AUDIO

REM correct time

   PERFORMER "2 Players vs Elizabeth Fields"
   TITLE "Signet Sympathy"
   INDEX 01 31:31:00

TRACK 07 AUDIO

REM correct time

   PERFORMER "Armin van Buuren"
   TITLE "Song For the Ocean"
   INDEX 01 40:04:00

TRACK 08 AUDIO

REM correct time

   PERFORMER "Ca-Lo"
   TITLE "Unite"
   INDEX 01 47:10:00

TRACK 09 AUDIO
   PERFORMER "The Nickelson Night Project"
   TITLE "Screen Saviour"
   INDEX 01 53:01:00

REM Next item may have this point:
REM INDEX 01 59:11:00

TRACK 10 AUDIO
   PERFORMER "Fred Numpf vs Five Point O"
   TITLE "Globalisation 2003 [Main mix]"
   INDEX 01 65:11:00

TRACK 11 AUDIO
   PERFORMER "De-Progression & AJ Gibson"
   TITLE "Twilight"
   INDEX 01 70:40:00

TRACK 12 AUDIO
   PERFORMER "A Situation"
   TITLE "The Situation [Liquid Life mix]"
   INDEX 01 76:10:00

TRACK 13 AUDIO
   PERFORMER "Rank 1"
   TITLE "Passage to the Unknown [GTR re-edit]"
   INDEX 01 83:04:00

TRACK 14 AUDIO
   PERFORMER "Perpetual Motion"
   TITLE "We're All Here Together [Andy Manston dub]"
   INDEX 01 89:58:00

TRACK 15 AUDIO
   PERFORMER "Faraway Project"
   TITLE "Believer"
   INDEX 01 95:35:00

TRACK 16 AUDIO
   PERFORMER "Ozone"
   TITLE "Theme From the Rock"
   INDEX 01 99:57:00

TRACK 17 AUDIO

REM correct time

   PERFORMER "Cern"
   TITLE "The Message [Northern mix]"
   INDEX 01 109:28:00

TRACK 18 AUDIO

REM correct time

   PERFORMER "Paul Vernon"
   TITLE "Mind Decay [Cern mix]"
   INDEX 01 116:23:00