Jump to page content

Cue sheet for Deep Z – Lost In Heaven CD63 December 2014

Original cue sheet file Tracklist and cue sheet archive

REM DISCID B612521C
REM COMMENT "ExactAudioCopy v0.99pb5"

PERFORMER "Deep Z"
TITLE "Lost In Heaven [liquid d&b mix - december 2014] CD63"
FILE "Deep Z - Lost In Heaven CD63 December 2014.mp3" MP3

TRACK 01 AUDIO
   TITLE "Infinite Realms [Omni Music]"
   PERFORMER "Acid Lab"
   INDEX 01 00:00:00

TRACK 02 AUDIO
   TITLE "Arrival [Omni Music]"
   PERFORMER "Acid Lab"
   INDEX 01 00:47:11

TRACK 03 AUDIO
   TITLE "Distant Space [Omni Music]"
   PERFORMER "Acid Lab"
   INDEX 01 01:54:09

TRACK 04 AUDIO
   TITLE "Before The Universe [Omni Music]"
   PERFORMER "Acid Lab"
   INDEX 01 07:06:51

TRACK 05 AUDIO
   TITLE "Beyonder [Omni Music]"
   PERFORMER "Acid Lab"
   INDEX 01 11:01:07

TRACK 06 AUDIO
   TITLE "Forgotten Planets [Omni Music]"
   PERFORMER "Acid Lab"
   INDEX 01 15:51:25

TRACK 07 AUDIO
   TITLE "Different Drummers [Logical Direction]"
   PERFORMER "Mutants"
   INDEX 01 21:26:16

TRACK 08 AUDIO
   TITLE "Dreams Of Mars [Omni Music]"
   PERFORMER "Acid Lab"
   INDEX 01 26:38:58

TRACK 09 AUDIO
   TITLE "Far Out [Omni Music]"
   PERFORMER "Acid Lab"
   INDEX 01 31:06:51

TRACK 10 AUDIO
   TITLE "Distant Time [Omni Music]"
   PERFORMER "Acid Lab"
   INDEX 01 35:34:44

TRACK 11 AUDIO
   TITLE "M31 [Omni Music]"
   PERFORMER "Acid Lab"
   INDEX 01 40:24:61

TRACK 12 AUDIO
   TITLE "Odyssey [Omni Music]"
   PERFORMER "Acid Lab"
   INDEX 01 45:37:28

TRACK 13 AUDIO
   TITLE "Saturn V [Omni Music]"
   PERFORMER "Acid Lab"
   INDEX 01 50:05:21

TRACK 14 AUDIO
   TITLE "Fusion Chillout [Influenza Media]"
   PERFORMER "Tim Cant"
   INDEX 01 53:48:38

TRACK 15 AUDIO
   TITLE "Plant Without A Star [Cadence]"
   PERFORMER "Rainforest"
   INDEX 01 58:14:48

TRACK 16 AUDIO
   TITLE "Time Stands Still [Celsius]"
   PERFORMER "Actraiser"
   INDEX 01 63:25:46

TRACK 17 AUDIO
   TITLE "Nothing [Soul Deep Exclusives]"
   PERFORMER "Humanature & Colussus"
   INDEX 01 68:12:20

TRACK 18 AUDIO
   TITLE "Polychromatic [Celsius]"
   PERFORMER "Actraiser"
   INDEX 01 72:57:41