Jump to page content

Cue sheet for Deep Z – Lost In Heaven CD46 December 2012

Original cue sheet file See tracklist Tracklist and cue sheet archive

REM DISCID A311F61B
REM COMMENT "ExactAudioCopy v0.99pb5"

PERFORMER "Deep Z"
TITLE "Lost in Heaven CD46 (December 2012)"
FILE "Deep Z - Lost in Heaven CD46 December 2012.mp3" MP3

TRACK 01 AUDIO
   TITLE "Intro"
   PERFORMER "Imagery"
   INDEX 01 00:00:00

TRACK 02 AUDIO
   TITLE "Felt The Same Way"
   PERFORMER "Dynamic"
   INDEX 01 02:25:29

TRACK 03 AUDIO
   TITLE "Leaving Earth"
   PERFORMER "Relay & Front"
   INDEX 01 06:50:13

TRACK 04 AUDIO
   TITLE "Need You"
   PERFORMER "Scott Allen & Flame"
   INDEX 01 11:15:00

TRACK 05 AUDIO
   TITLE "Autumn Memories"
   PERFORMER "N4m3 & Sundesire"
   INDEX 01 15:39:62

TRACK 06 AUDIO
   TITLE "Aquaria"
   PERFORMER "Rowpieces & Chris Sabian"
   INDEX 01 19:42:44

TRACK 07 AUDIO
   TITLE "When You Were Mine [VIP mix]"
   PERFORMER "Hosta"
   INDEX 01 24:07:31

TRACK 08 AUDIO
   TITLE "Sweet Sunday"
   PERFORMER "Skyweep"
   INDEX 01 29:16:29

TRACK 09 AUDIO
   TITLE "Uvek Blizu"
   PERFORMER "Big Bud"
   INDEX 01 33:41:14

TRACK 10 AUDIO
   TITLE "Your World"
   PERFORMER "Command Strange & Dynamic"
   INDEX 01 38:26:40

TRACK 11 AUDIO
   TITLE "Stay Connected"
   PERFORMER "Melos"
   INDEX 01 42:05:72

TRACK 12 AUDIO
   TITLE "600 Feet Under"
   PERFORMER "Flowrian"
   INDEX 01 47:57:05

TRACK 13 AUDIO
   TITLE "Drifting Away"
   PERFORMER "Scott Allen & Flame"
   INDEX 01 52:21:60

TRACK 14 AUDIO
   TITLE "Long Way Out"
   PERFORMER "Naibu"
   INDEX 01 56:46:48

TRACK 15 AUDIO
   TITLE "Secret Room"
   PERFORMER "Naibu"
   INDEX 01 60:49:29

TRACK 16 AUDIO
   TITLE "Cote D'azur"
   PERFORMER "Parhelia"
   INDEX 01 65:14:17

TRACK 17 AUDIO
   TITLE "Northern Sunsets"
   PERFORMER "Future Skyline"
   INDEX 01 70:01:07