Jump to page content

Cue sheet for Deep Z – Lost In Heaven CD45 November 2012

Original cue sheet file See tracklist Tracklist and cue sheet archive

REM DISCID 3D110315
REM COMMENT "ExactAudioCopy v0.99pb5"

PERFORMER "Deep Z"
TITLE "Lost in Heaven CD45 (November 2012)"
FILE "Deep Z - Lost in Heaven CD45 November 2012.mp3" MP3

TRACK 01 AUDIO
   TITLE "Sirtaki On Mars [Electrosoul System remix]"
   PERFORMER "OMFO"
   INDEX 01 00:00:00

TRACK 02 AUDIO
   TITLE "Voice Of The Moon [Remix 2011]"
   PERFORMER "Electrosoul System"
   INDEX 01 06:15:34

TRACK 03 AUDIO
   TITLE "Midnight Showers"
   PERFORMER "Electrosoul System"
   INDEX 01 10:44:74

TRACK 04 AUDIO
   TITLE "Ordinary People"
   PERFORMER "Stunna and Kharm"
   INDEX 01 14:28:25

TRACK 05 AUDIO
   TITLE "Nine Planets"
   PERFORMER "Electrosoul System"
   INDEX 01 18:56:16

TRACK 06 AUDIO
   TITLE "Goa Sands"
   PERFORMER "Future Skyline"
   INDEX 01 22:49:26

TRACK 07 AUDIO
   TITLE "Easy Changes"
   PERFORMER "Dima Pulsar"
   INDEX 01 27:58:29

TRACK 08 AUDIO
   TITLE "Forgiveness"
   PERFORMER "Phil Tangent"
   INDEX 01 33:07:27

TRACK 09 AUDIO
   TITLE "Temptations"
   PERFORMER "Ncamargo"
   INDEX 01 38:16:24

TRACK 10 AUDIO
   TITLE "Moving You"
   PERFORMER "Ncamargo"
   INDEX 01 43:25:22

TRACK 11 AUDIO
   TITLE "Late Tales From Driftwood"
   PERFORMER "Melos"
   INDEX 01 48:01:10

TRACK 12 AUDIO
   TITLE "Arty Fellows"
   PERFORMER "mSdoS"
   INDEX 01 52:24:38

TRACK 13 AUDIO
   TITLE "She Knows It"
   PERFORMER "Technimatic"
   INDEX 01 56:46:30

TRACK 14 AUDIO
   TITLE "Perfect Day"
   PERFORMER "Alexus"
   INDEX 01 61:08:17

TRACK 15 AUDIO
   TITLE "Paradox"
   PERFORMER "Future Skyline"
   INDEX 01 65:08:17