Jump to page content

Cue sheet for Deep Z – Lost In Heaven CD28 January 2011

Original cue sheet file Tracklist and cue sheet archive

REM DISCID ED125D11
REM COMMENT "ExactAudioCopy v0.99pb5"
PERFORMER "Deep Z"
TITLE "Lost In Heaven [deep d&b mix - january 2011] CD28"
FILE "Deep Z - Lost in Heaven CD28 January 2011.mp3" MP3

TRACK 01 AUDIO
   TITLE "Renewal [Outsider]"
   PERFORMER "Lm1"
   INDEX 01 00:00:00

TRACK 02 AUDIO
   TITLE "The Prophecy [Offworld]"
   PERFORMER "Bass'Flo"
   INDEX 01 05:13:38

TRACK 03 AUDIO
   TITLE "Mr. Smith [Dubplate]"
   PERFORMER "Edward Oberon"
   INDEX 01 10:42:53

TRACK 04 AUDIO
   TITLE "Duplicity [Dispatch]"
   PERFORMER "Lm1 & Kharm"
   INDEX 01 15:31:17

TRACK 05 AUDIO
   TITLE "Above The Rim (Naibu Remix) [Fokuz]"
   PERFORMER "Madmen & Poets"
   INDEX 01 19:18:56

TRACK 06 AUDIO
   TITLE "Inversion (Naibu Remix) [Levitated]"
   PERFORMER "Lm1 & Kharm"
   INDEX 01 23:22:68

TRACK 07 AUDIO
   TITLE "Fields Of Dreams [CDR]"
   PERFORMER "Sundancer"
   INDEX 01 27:49:20

TRACK 08 AUDIO
   TITLE "Moondust [Offworld]"
   PERFORMER "Scenic & Advisory"
   INDEX 01 32:15:46

TRACK 09 AUDIO
   TITLE "With The Friend The Shadow [Outsider]"
   PERFORMER "Spotless"
   INDEX 01 37:02:38

TRACK 10 AUDIO
   TITLE "Into The Emptiness [Offworld]"
   PERFORMER "Sundancer"
   INDEX 01 41:03:67

TRACK 11 AUDIO
   TITLE "Whatever You Want [Offworld]"
   PERFORMER "Johnny Beverton"
   INDEX 01 45:49:11

TRACK 12 AUDIO
   TITLE "Dreamwalker [Offworld]"
   PERFORMER "Bass'Flo"
   INDEX 01 49:25:61

TRACK 13 AUDIO
   TITLE "Mount Everest [Offworld]"
   PERFORMER "Bass'Flo"
   INDEX 01 53:47:51

TRACK 14 AUDIO
   TITLE "Snow [Hospital]"
   PERFORMER "Seba"
   INDEX 01 58:43:67

TRACK 15 AUDIO
   TITLE "Hold On [CDR]"
   PERFORMER "Sundancer"
   INDEX 01 62:45:21

TRACK 16 AUDIO
   TITLE "Crystal Forms [Camino Blue]"
   PERFORMER "Derrick & Tonika"
   INDEX 01 67:32:13

TRACK 17 AUDIO
   TITLE "Words Are Not Enough [CDR]"
   PERFORMER "Sundancer"
   INDEX 01 72:19:04