Jump to page content

Cue sheet for Deep Z – Lost In Heaven CD20 December 2009

Original cue sheet file See tracklist Tracklist and cue sheet archive

REM DISCID CA12630F
REM COMMENT "ExactAudioCopy v0.99pb5"

PERFORMER "Deep Z"
TITLE "Lost In Heaven [deep d&b mix - december 2009] CD20"
FILE "Deep Z - Lost In Heaven CD20 December 2009.mp3" MP3

TRACK 01 AUDIO
   TITLE "Brown Eyes Mesmerize [Strictly Digital]"
   PERFORMER "JCB"
   INDEX 01 00:00:00

TRACK 02 AUDIO
   TITLE "In My Arms [Strictly Digital]"
   PERFORMER "Laclef"
   INDEX 01 07:28:43

TRACK 03 AUDIO
   TITLE "Calm Sea [Strictly Digital]"
   PERFORMER "Silbrfish"
   INDEX 01 13:32:19

TRACK 04 AUDIO
   TITLE "Danger Zone (Submorphics Remix) [Westbay]"
   PERFORMER "Atlantic Connection & Lynx"
   INDEX 01 19:09:27

TRACK 05 AUDIO
   TITLE "Logistical Nightmare (Orginal Mix) [Strictly Digital]"
   PERFORMER "Nookie"
   INDEX 01 23:59:55

TRACK 06 AUDIO
   TITLE "Believe Me [Blu Mar Ten]"
   PERFORMER "Blu Mar Ten"
   INDEX 01 28:49:72

TRACK 07 AUDIO
   TITLE "Order 66 [Strictly Digital]"
   PERFORMER "Nookie"
   INDEX 01 32:54:19

TRACK 08 AUDIO
   TITLE "Light Fantastic [Strictly Digital]"
   PERFORMER "Sci-Phi"
   INDEX 01 37:20:46

TRACK 09 AUDIO
   TITLE "Deep Thoughts [Strictly Digital]"
   PERFORMER "P.B.K. & Modemellow"
   INDEX 01 41:45:42

TRACK 10 AUDIO
   TITLE "Eleven Dimensions [Strictly Digital]"
   PERFORMER "Modemellow"
   INDEX 01 46:53:13

TRACK 11 AUDIO
   TITLE "Reality Checkpoint [Hospital]"
   PERFORMER "Logistics"
   INDEX 01 51:27:37

TRACK 12 AUDIO
   TITLE "Global Frontiers [Strictly Digital]"
   PERFORMER "Tidal"
   INDEX 01 56:36:25

TRACK 13 AUDIO
   TITLE "Hyperdermic [Strictly Digital]"
   PERFORMER "Greenfly"
   INDEX 01 61:43:50

TRACK 14 AUDIO
   TITLE "Meanz Something [Strictly Digital]"
   PERFORMER "J-Laze"
   INDEX 01 67:03:40

TRACK 15 AUDIO
   TITLE "Sandstorm [Strictly Digital]"
   PERFORMER "Greenfly"
   INDEX 01 72:32:61