Jump to page content

Cue sheet for Deep Z – Lost In Heaven CD16 August 2009

Original cue sheet file See tracklist Tracklist and cue sheet archive

PERFORMER "Deep Z"
TITLE "Lost In Heaven [deep d&b mix - august 2009] CD16"
FILE "Deep Z - Lost In Heaven CD16 August 2009.mp3" MP3

TRACK 01 AUDIO
   TITLE "Low Pressure [Cadence]"
   PERFORMER "Aural Imbalance"
   INDEX 01 00:00:00

TRACK 02 AUDIO
   TITLE "Cosmetic Odyssey [Mole Listening Pearls]"
   PERFORMER "Audio Lotion"
   INDEX 01 08:00:00

TRACK 03 AUDIO
   TITLE "Touch Me (95 Agony Mix) [Timeless]"
   PERFORMER "Digital"
   INDEX 01 14:27:00

TRACK 04 AUDIO
   TITLE "Soul Searching [Good Looking]"
   PERFORMER "Aquarius & Tayla"
   INDEX 01 19:27:00

TRACK 05 AUDIO
   TITLE "United Earth [Cadence]"
   PERFORMER "Inner-Vation"
   INDEX 01 22:49:61

TRACK 06 AUDIO
   TITLE "Hypersleep [R & S]"
   PERFORMER "Voyager"
   INDEX 01 28:21:55

TRACK 07 AUDIO
   TITLE "The Crane [Source Direct]"
   PERFORMER "Source Direct"
   INDEX 01 33:51:47

TRACK 08 AUDIO
   TITLE "Cold Fresh Air [Liftin' Spirit]"
   PERFORMER "Higher Sense"
   INDEX 01 38:57:24

TRACK 09 AUDIO
   TITLE "Complexities [Good Looking]"
   PERFORMER "Source Direct"
   INDEX 01 42:40:45

TRACK 10 AUDIO
   TITLE "Mars [Timeless]"
   PERFORMER "Total Science"
   INDEX 01 47:11:37

TRACK 11 AUDIO
   TITLE "Duality [Ascendant Grooves]"
   PERFORMER "PHD"
   INDEX 01 52:16:72

TRACK 12 AUDIO
   TITLE "Astral Forest [Ascendant Grooves]"
   PERFORMER "Aural Imbalance"
   INDEX 01 56:57:72

TRACK 13 AUDIO
   TITLE "The Ephemeris [Timeless]"
   PERFORMER "Future Bound"
   INDEX 01 62:03:10

TRACK 14 AUDIO
   TITLE "In Too Deep [Moving Shadow]"
   PERFORMER "JMJ & Flytronix"
   INDEX 01 66:46:37

TRACK 15 AUDIO
   TITLE "So This Is Love '96 [Moving Shadow]"
   PERFORMER "Essence Of Aura"
   INDEX 01 71:30:67