Jump to page content

Cue sheet for Deep Z – Lost In Heaven CD03 June 2008

Original cue sheet file Tracklist and cue sheet archive

PERFORMER "Deep Z"
TITLE "Lost In Heaven [deep d&b mix - june 2008] CD03"
FILE "Deep Z - Lost In Heaven CD03 June 2008.mp3" MP3

TRACK 01 AUDIO
   TITLE "Resolution"
   PERFORMER "Intense"
   INDEX 01 00:00:00

TRACK 02 AUDIO
   TITLE "Global Access"
   PERFORMER "Blu Mar Ten"
   INDEX 01 06:12:09

TRACK 03 AUDIO
   TITLE "Equanmity"
   PERFORMER "Intersperse"
   INDEX 01 12:52:23

TRACK 04 AUDIO
   TITLE "Dimensions"
   PERFORMER "Tayla"
   INDEX 01 19:53:73

TRACK 05 AUDIO
   TITLE "Futureproof"
   PERFORMER "Blu Mar Ten"
   INDEX 00 24:56:59
   INDEX 01 24:56:65

TRACK 06 AUDIO
   TITLE "Equinox"
   PERFORMER "Cedar"
   INDEX 01 31:27:69

TRACK 07 AUDIO
   TITLE "Yield"
   PERFORMER "Laroque"
   INDEX 00 36:44:08
   INDEX 01 36:44:20

TRACK 08 AUDIO
   TITLE "Lakez"
   PERFORMER "J-Laze"
   INDEX 01 41:53:37

TRACK 09 AUDIO
   TITLE "Planetary Funk Alert"
   PERFORMER "Seba"
   INDEX 00 46:47:01
   INDEX 01 46:47:10

TRACK 10 AUDIO
   TITLE "Sonic Winds"
   PERFORMER "Seba feat. Lotek"
   INDEX 00 52:15:47
   INDEX 01 52:15:48

TRACK 11 AUDIO
   TITLE "The Mystics"
   PERFORMER "PFM"
   INDEX 01 60:38:66

TRACK 12 AUDIO
   TITLE "So Long"
   PERFORMER "Seba feat. Lotek"
   INDEX 00 67:57:25
   INDEX 01 67:57:26

TRACK 13 AUDIO
   TITLE "Greater Love"
   PERFORMER "Elisabeth Troy Featuring Soundman & Don Lloydie"
   INDEX 01 76:02:55