Jump to page content

Cue sheet for Deep Z – Lost In Heaven CD02 May 2008

Original cue sheet file Tracklist and cue sheet archive

PERFORMER "Deep Z"
TITLE "Lost In Heaven [deep d&b mix - may 2008] CD02"
FILE "Deep Z - Lost In Heaven CD02 May 2008.mp3" MP3

TRACK 01 AUDIO
   TITLE "Apollo"
   PERFORMER "Voyager"
   INDEX 01 00:00:00

TRACK 02 AUDIO
   TITLE "Myriad"
   PERFORMER "Blu Mar Ten"
   INDEX 00 07:21:00
   INDEX 01 07:21:10

TRACK 03 AUDIO
   TITLE "Elysian Fields"
   PERFORMER "Artemis"
   INDEX 00 12:46:63
   INDEX 01 12:46:73

TRACK 04 AUDIO
   TITLE "Inner Worlds"
   PERFORMER "Artemis"
   INDEX 01 18:59:51

TRACK 05 AUDIO
   TITLE "Horizons"
   PERFORMER "LTJ Bukem"
   INDEX 01 25:35:53

TRACK 06 AUDIO
   TITLE "Jazz Ass"
   PERFORMER "Shifty"
   INDEX 00 31:18:13
   INDEX 01 31:18:15

TRACK 07 AUDIO
   TITLE "Donna Jane"
   PERFORMER "Dust"
   INDEX 00 36:22:47
   INDEX 01 36:22:51

TRACK 08 AUDIO
   TITLE "Transamazonia (LTJ Bukem Mix)"
   PERFORMER "Shamen"
   INDEX 01 41:58:52

TRACK 09 AUDIO
   TITLE "Aura"
   PERFORMER "Skin 4"
   INDEX 01 46:54:20

TRACK 10 AUDIO
   TITLE "Secret Portraits"
   PERFORMER "New Balance"
   INDEX 00 50:31:66
   INDEX 01 50:31:73

TRACK 11 AUDIO
   TITLE "Desideradi"
   PERFORMER "Artemis"
   INDEX 00 55:14:62
   INDEX 01 55:14:72

TRACK 12 AUDIO
   TITLE "Flight 19"
   PERFORMER "Mark J"
   INDEX 01 62:03:10

TRACK 13 AUDIO
   TITLE "God Chord"
   PERFORMER "Bjorn"
   INDEX 00 67:17:19
   INDEX 01 67:17:25

TRACK 14 AUDIO
   TITLE "Camouflage"
   PERFORMER "Seba"
   INDEX 01 72:50:55