Jump to page content

Cue sheet for Deep Z – Lost In Heaven CD01 May 2008

Original cue sheet file Tracklist and cue sheet archive

PERFORMER "Deep Z"
TITLE "Lost In Heaven [deep d&b mix - may 2008] CD01"
FILE "Deep Z - Lost In Heaven CD01 May 2008.mp3" MP3

TRACK 01 AUDIO
   TITLE "Plenilune"
   PERFORMER "Sand"
   INDEX 01 00:00:00

TRACK 02 AUDIO
   TITLE "Jeamland"
   PERFORMER "The Blims"
   INDEX 01 04:25:53

TRACK 03 AUDIO
   TITLE "Pushing The Vibe"
   PERFORMER "Nookie feat. DRS"
   INDEX 00 09:07:70
   INDEX 01 09:08:04

TRACK 04 AUDIO
   TITLE "Tokyo Dawn"
   PERFORMER "Doc Scott"
   INDEX 01 16:05:70

TRACK 05 AUDIO
   TITLE "Tales"
   PERFORMER "New Jazz Hustlers"
   INDEX 01 21:44:57

TRACK 06 AUDIO
   TITLE "Mutant Jazz"
   PERFORMER "T. Power Vs. M.K. Ultra"
   INDEX 01 28:14:31

TRACK 07 AUDIO
   TITLE "Zero Gravity"
   PERFORMER "Ethereal 77"
   INDEX 00 33:02:22
   INDEX 01 33:02:31

TRACK 08 AUDIO
   TITLE "Future Bluez"
   PERFORMER "Pariah"
   INDEX 00 39:48:68
   INDEX 01 39:49:00

TRACK 09 AUDIO
   TITLE "Rhythm Factor"
   PERFORMER "In Deep"
   INDEX 00 44:53:62
   INDEX 01 44:53:70

TRACK 10 AUDIO
   TITLE "Echo Location"
   PERFORMER "Future Engineers"
   INDEX 01 51:23:44

TRACK 11 AUDIO
   TITLE "Dovima's Fantasy"
   PERFORMER "Parallax"
   INDEX 00 56:39:46
   INDEX 01 56:39:62

TRACK 12 AUDIO
   TITLE "Innerspace"
   PERFORMER "Nookie"
   INDEX 00 62:38:22
   INDEX 01 62:38:31

TRACK 13 AUDIO
   TITLE "You Can't Hold Me Back"
   PERFORMER "Nookie"
   INDEX 00 69:24:66
   INDEX 01 69:25:00

TRACK 14 AUDIO
   TITLE "Get Down"
   PERFORMER "Nookie"
   INDEX 01 75:18:27