Jump to page content

Cue sheet for DJ Tiesto – Live at Gatecrasher NEC 2002-04-13

Original cue sheet file See tracklist Tracklist and cue sheet archive

FILE "DJ Tiesto - Live at Gatecrasher NEC 2002-04-13.mp3" MP3
PERFORMER "DJ Tiësto"
TITLE "Live at Gatecrasher NEC 13/04/2002"

TRACK 01 AUDIO
   TITLE "Xit 2 Nowhere [Mind One remix]"
   PERFORMER "Microbe"
   INDEX 01 00:00:00

TRACK 02 AUDIO
   TITLE "Can You Feel the Silence"
   PERFORMER "Talla 2XLC"
   INDEX 01 03:07:00

TRACK 03 AUDIO
   TITLE "The Space Between [DJ Tiësto remix]"
   PERFORMER "Dave Matthews Band"
   INDEX 01 09:50:00

TRACK 04 AUDIO
   TITLE "Razorfish [Above & Beyond Bangin mix]"
   PERFORMER "Tranquility Base"
   INDEX 01 15:15:00

TRACK 05 AUDIO
   TITLE "Into the Night [Gabriel And Dresden 6 Deep dub]"
   PERFORMER "4 Strings"
   INDEX 01 18:52:00

TRACK 06 AUDIO
   TITLE "Summer Calling"
   PERFORMER "Andain"
   INDEX 01 23:30:00

TRACK 07 AUDIO
   TITLE "Moonshine [Exor Mix part II]"
   PERFORMER "Project Medusa vs Exor"
   INDEX 01 24:30:00

TRACK 08 AUDIO
   TITLE "Southern sun [DJ Tiësto remix]"
   PERFORMER "Paul Oakenfold"
   INDEX 01 27:19:00

TRACK 09 AUDIO
   TITLE "Alphascan"
   PERFORMER "Mass Effect"
   INDEX 01 33:51:00

TRACK 10 AUDIO
   TITLE "Silverbath"
   PERFORMER "Plastic Boy"
   INDEX 01 36:48:00

TRACK 11 AUDIO
   TITLE "Lethal Industry [Original mix]"
   PERFORMER "DJ Tiesto"
   INDEX 01 43:24:00

TRACK 12 AUDIO
   TITLE "Say Yes [Katana remix]"
   PERFORMER "DJ Albert vs Precision"
   INDEX 01 47:01:00

TRACK 13 AUDIO
   TITLE "Overkill"
   PERFORMER "Mark Norman"
   INDEX 01 48:29:00

TRACK 14 AUDIO
   TITLE "Benozal"
   PERFORMER "Umek"
   INDEX 01 52:07:00

TRACK 15 AUDIO
   TITLE "La Rock 01"
   PERFORMER "Vitalic"
   INDEX 01 55:44:00

TRACK 16 AUDIO
   TITLE "Another Dimension"
   PERFORMER "Airwave"
   INDEX 01 58:05:00

TRACK 17 AUDIO
   TITLE "Nebuchan"
   PERFORMER "Frank T.R.A.X."
   INDEX 01 61:30:00

TRACK 18 AUDIO
   TITLE "The End of the Earth [2002 remake]"
   PERFORMER "The Green Martian"
   INDEX 01 67:24:00