Jump to page content

Cue sheet for DJ Arje – Day of Silence

Original cue sheet file See tracklist Tracklist and cue sheet archive

FILE "DJ Arje - Day of Silence.mp3" MP3
PERFORMER "DJ Arje"
TITLE "Day of Silence"

TRACK 01 AUDIO
   INDEX 01 00:00:00
   TITLE "Intro (savenetradio.org)"

TRACK 02 AUDIO
   INDEX 01 00:22:00
   PERFORMER "Decoder"
   TITLE "Tag Breakz"

TRACK 03 AUDIO
   INDEX 01 05:22:00
   PERFORMER "Hustle Athletics"
   TITLE "Lekker"

TRACK 04 AUDIO
   INDEX 01 00:00:00
   PERFORMER "Technical Itch"
   TITLE "Implant"

TRACK 05 AUDIO
   INDEX 01 00:00:00
   PERFORMER "DJ Misjah & DJ Tim"
   TITLE "The Switch"

TRACK 06 AUDIO
   INDEX 01 00:00:00
   PERFORMER "Headhunter"
   TITLE "7th Curse"

TRACK 07 AUDIO
   INDEX 01 00:00:00
   PERFORMER "Raumton"
   TITLE "Wired"

TRACK 08 AUDIO
   INDEX 01 19:45:00
   PERFORMER "The Green Man"
   TITLE "Philtry"

TRACK 09 AUDIO
   INDEX 01 21:08:00
   PERFORMER "Peshay"
   TITLE "Robotics"

TRACK 10 AUDIO
   INDEX 01 28:00:00
   PERFORMER "Blu Mar Ten & The Fink"
   TITLE "The Date"

TRACK 11 AUDIO
   INDEX 01 31:48:00
   PERFORMER "Klute"
   TITLE "174 BPM"

TRACK 12 AUDIO
   INDEX 01 37:58:00
   PERFORMER "RMF"
   TITLE "Erronel"

TRACK 13 AUDIO
   INDEX 01 41:54:00
   PERFORMER "Peshay"
   TITLE "Jazz Lick"

TRACK 14 AUDIO
   INDEX 01 45:08:00
   PERFORMER "RMF"
   TITLE "Rhodesia"

TRACK 15 AUDIO
   INDEX 01 50:09:00
   PERFORMER "Sonic Saturation"
   TITLE "Sax On Night"

TRACK 16 AUDIO
   INDEX 01 52:57:00
   PERFORMER "Omni Trio"
   TITLE "Trippin on Broken Beats [remix]"

TRACK 17 AUDIO
   INDEX 01 56:45:00
   PERFORMER "I Kamanchi"
   TITLE "Stay"

TRACK 18 AUDIO
   INDEX 01 60:45:00
   PERFORMER "Skeema"
   TITLE "Lost [Nookie remix]"

TRACK 19 AUDIO
   INDEX 01 65:03:00
   PERFORMER "Redeyes"
   TITLE "Behind Closed Doors"

TRACK 20 AUDIO
   INDEX 01 67:34:00
   PERFORMER "C-Skitty"
   TITLE "Dirty South"

TRACK 21 AUDIO
   INDEX 01 72:48:00
   PERFORMER "Break"
   TITLE "Mr. Crystal"

TRACK 22 AUDIO
   INDEX 01 73:29:00
   PERFORMER "Nasty Habits"
   TITLE "Deep Beats"

TRACK 23 AUDIO
   INDEX 01 76:16:00
   PERFORMER "Jan Delay"
   TITLE "Vergiftet [Secret bootleg remix]"

TRACK 24 AUDIO
   INDEX 01 00:00:00
   PERFORMER "Implex"
   TITLE "Ocean of Oceans"

TRACK 25 AUDIO
   INDEX 01 00:00:00
   PERFORMER "Alix Perez"
   TITLE "Ninth Wonder"

TRACK 26 AUDIO
   INDEX 01 00:00:00
   PERFORMER "Implex"
   TITLE "Perfect Blue"

TRACK 27 AUDIO
   INDEX 01 00:00:00
   PERFORMER "Nucleus & Paradox"
   TITLE "Esoteric Funk"

TRACK 28 AUDIO
   INDEX 01 95:08:00
   PERFORMER "Adam F"
   TITLE "Brand New Funk"

TRACK 29 AUDIO
   INDEX 01 102:24:00
   PERFORMER "Davide Carbone & Kubiks"
   TITLE "Strictly Rollin"

TRACK 30 AUDIO
   INDEX 01 106:00:00
   PERFORMER "Extreme G 2"
   TITLE "Track 03"

TRACK 31 AUDIO
   INDEX 01 107:25:00
   PERFORMER "Serum"
   TITLE "Dub Dread"

TRACK 32 AUDIO
   INDEX 01 112:12:00
   PERFORMER "Squarepusher"
   TITLE "Come On My Selector"

TRACK 33 AUDIO
   INDEX 01 114:42:00
   PERFORMER "Arcane"
   TITLE "Polygon Sea"

TRACK 34 AUDIO
   INDEX 01 117:45:00
   PERFORMER "Aphrodite"
   TITLE "Listen to the Rhythm"

TRACK 35 AUDIO
   INDEX 01 00:00:00
   PERFORMER "Ed Rush & Optical"
   TITLE "Zardoz"

TRACK 36 AUDIO
   INDEX 01 00:00:00
   PERFORMER "Mindscape"
   TITLE "Force Back"

TRACK 37 AUDIO
   INDEX 01 00:00:00
   PERFORMER "Sunchase"
   TITLE "Dreamcatcher"

TRACK 38 AUDIO
   INDEX 01 00:00:00
   PERFORMER "Black Sun Empire"
   TITLE "Space Bunny"

TRACK 39 AUDIO
   INDEX 01 00:00:00
   PERFORMER "EBK"
   TITLE "Soma"

TRACK 40 AUDIO
   INDEX 01 00:00:00
   PERFORMER "Current Value"
   TITLE "Mind Bullet"

TRACK 41 AUDIO
   INDEX 01 137:00:00
   PERFORMER "The Cambridge Four"
   TITLE "When Pilots Eject"

TRACK 42 AUDIO
   INDEX 01 144:50:00
   PERFORMER "Castor"
   TITLE "Nothing Can Break Us"

TRACK 43 AUDIO
   INDEX 01 147:33:00
   PERFORMER "Implex"
   TITLE "PI"

TRACK 44 AUDIO
   INDEX 01 00:00:00
   PERFORMER "Trilingo"
   TITLE "Cloud Dark Night"

TRACK 45 AUDIO
   INDEX 01 00:00:00
   PERFORMER "Seba & Paradox"
   TITLE "Red Tears"