Jump to page content

Cue sheet for Chicane – Live from Palladium 2000-01-22

Original cue sheet file See tracklist Tracklist and cue sheet archive

FILE "Chicane - Live from Palladium 2000-01-22.mp3" MP3
TITLE "Live from Palladium, Köln, Germany 22/01/2000"
PERFORMER "Chicane"

TRACK 01 AUDIO
   TITLE "Intro / Nagasaki Badger"
   PERFORMER "Chicane"
   INDEX 01 00:00:00

TRACK 02 AUDIO
   TITLE "Halcyon"
   PERFORMER "Chicane"
   INDEX 01 01:00:23

TRACK 03 AUDIO
   TITLE "Saltwater [Tomski vs. Disco Citizens remix]"
   PERFORMER "Chicane"
   INDEX 01 10:54:40

TRACK 04 AUDIO
   TITLE "Don't Give Up [Tomski vs. Disco Citizens instrumental]"
   PERFORMER "Chicane"
   INDEX 01 21:59:26

TRACK 05 AUDIO
   TITLE "Offshore [Original/Disco Citizens remix]"
   PERFORMER "Chicane"
   INDEX 01 32:53:11

TRACK 06 AUDIO
   TITLE "Mojave"
   PERFORMER "Chicane"
   INDEX 01 43:04:64

TRACK 07 AUDIO
   TITLE "Saltwater [Original cut]"
   PERFORMER "Chicane"
   INDEX 01 51:58:39