Jump to page content

Cue sheet for BsJnr – GLR Tribute Mix 4

Original cue sheet file See tracklist Tracklist and cue sheet archive

FILE "BsJnr - GLR Tribute Mix 4.mp3" MP3
PERFORMER "BsJnr"
TITLE "GLR Tribute Mix 4"

TRACK 01 AUDIO
   INDEX 01 00:00:00
   PERFORMER "BMT"
   TITLE "I'm Still Waiting"

TRACK 02 AUDIO
   INDEX 01 05:19:00
   PERFORMER "PFM"
   TITLE "Sakora"

TRACK 03 AUDIO
   INDEX 01 12:43:00
   PERFORMER "Big Bud"
   TITLE "Dawn of Harmony [Remix]"

TRACK 04 AUDIO
   INDEX 01 19:46:00
   PERFORMER "Cedar"
   TITLE "Distant Images"

TRACK 05 AUDIO
   INDEX 01 25:19:00
   PERFORMER "Big Bud"
   TITLE "Hypnosis"

TRACK 06 AUDIO
   INDEX 01 32:21:00
   PERFORMER "PFM & Arion"
   TITLE "Emerge"

TRACK 07 AUDIO
   INDEX 01 39:45:00
   PERFORMER "PFM"
   TITLE "Summerboy"

TRACK 08 AUDIO
   INDEX 01 47:15:00
   PERFORMER "PFM"
   TITLE "Inertia"

TRACK 09 AUDIO
   INDEX 01 54:37:00
   PERFORMER "Cascade"
   TITLE "Mysteries"

TRACK 10 AUDIO
   INDEX 01 61:17:00
   PERFORMER "Nookie"
   TITLE "Solstice"