Jump to page content

Cue sheet for BsJnr – GLR Tribute Mix 3

Original cue sheet file See tracklist Tracklist and cue sheet archive

FILE "BsJnr - GLR Tribute Mix 3.mp3" MP3
PERFORMER "BsJnr"
TITLE "GLR Tribute Mix 3"

TRACK 01 AUDIO
   INDEX 01 00:00:00
   PERFORMER "Ethereal 77"
   TITLE "Zero Gravity"

TRACK 02 AUDIO
   INDEX 01 06:01:00
   PERFORMER "LTJ Bukem"
   TITLE "The Essence [Remix]"

TRACK 03 AUDIO
   INDEX 01 14:06:00
   PERFORMER "Nookie"
   TITLE "Natural Experience"

TRACK 04 AUDIO
   INDEX 01 21:11:00
   PERFORMER "Nookie"
   TITLE "Balance Point"

TRACK 05 AUDIO
   INDEX 01 27:41:00
   PERFORMER "Makoto"
   TITLE "Futures Call [Remix]"

TRACK 06 AUDIO
   INDEX 01 36:43:00
   PERFORMER "Nookie"
   TITLE "Nightfalls"

TRACK 07 AUDIO
   INDEX 01 45:11:00
   PERFORMER "Pete Rann"
   TITLE "Mind Fuel"